Ouvir e Baixar | Frank Orth | 1080p HDRip Ça Streaming
[Login] or [Signup]
Login
Username:
Password:
[Signup]
[Recover Account]


Poll


You must be logged in to view polls



Torrent Details For "Final Fantasy The Spirits Within 2001 720p BRRip Dual Audio [Hindi - English 2.0] ESub"

Final Fantasy The Spirits Within 2001 720p BRRip Dual Audio [Hindi - English 2.0] ESub

Download this torrent | Magnet Download
Health:
Seeds: 1,652
Leechers: 2,440
Completed: 2,583 
Last Checked: 13-10-2017 08:29:42
External Torrent
Update Stats


Poster


Details
Name:Final Fantasy The Spirits Within 2001 720p BRRip Dual Audio [Hindi - English 2.0] ESub
Description:


General
Format                                   : Matroska
Format version                           : Version 4 / Version 2
File size                                : 814 MiB
Duration                                 : 1 h 45 min
Overall bit rate                         : 1 073 kb/s

Video
ID                                       : 1
Format                                   : AVC
Format/Info                              : Advanced Video Codec
Format profile                           : [email protected]
Format settings                          : CABAC / 8 Ref Frames
Format settings, CABAC                   : Yes
Format settings, RefFrames               : 8 frames
Codec ID                                 : V_MPEG4/ISO/AVC
Duration                                 : 1 h 45 min
Bit rate                                 : 829 kb/s
Width                                    : 1 280 pixels
Height                                   : 688 pixels
Display aspect ratio                     : 1.85:1
Frame rate mode                          : Constant
Frame rate                               : 23.976 (24000/1001) FPS
Color space                              : YUV
Chroma subsampling                       : 4:2:0
Bit depth                                : 8 bits
Scan type                                : Progressive
Bits/(Pixel*Frame)                       : 0.039
Stream size                              : 628 MiB (77%)
Writing library                          : x264 core 129 r2230 1cffe9f
Default                                  : Yes
Forced                                   : No

Audio #1
ID                                       : 2
Format                                   : AAC
Format/Info                              : Advanced Audio Codec
Format profile                           : LC
Codec ID                                 : A_AAC-2
Duration                                 : 1 h 39 min
Bit rate                                 : 161 kb/s
Channel(s)                               : 2 channels
Channel positions                        : Front: L R
Sampling rate                            : 44.1 kHz
Frame rate                               : 43.066 FPS (1024 SPF)
Compression mode                         : Lossy
Stream size                              : 114 MiB (14%)
Language                                 : Hindi
Default                                  : Yes
Forced                                   : No

Audio #2
ID                                       : 3
Format                                   : AAC
Format/Info                              : Advanced Audio Codec
Format profile                           : LC
Codec ID                                 : A_AAC-2
Duration                                 : 1 h 45 min
Bit rate                                 : 92.0 kb/s
Channel(s)                               : 2 channels
Channel positions                        : Front: L R
Sampling rate                            : 48.0 kHz
Frame rate                               : 46.875 FPS (1024 SPF)
Compression mode                         : Lossy
Stream size                              : 69.7 MiB (9%)
Language                                 : English
Default                                  : No
Forced                                   : No

Text
ID                                       : 4
Format                                   : UTF-8
Codec ID                                 : S_TEXT/UTF8
Codec ID/Info                            : UTF-8 Plain Text
Duration                                 : 1 h 36 min
Bit rate                                 : 45 b/s
Count of elements                        : 989
Stream size                              : 31.9 KiB (0%)
Language                                 : English
Default                                  : Yes
Forced                                   : No






Category:Movies > Hollywood Dub
Lang:Hindi
Total Size:813.70 MB
Info Hash:8feb90696315e347741ebf4a7917aedbe218da56
Added By:Freaky
Date Added:12-10-2017 09:32:20
Views:790
Hits:129

Ratings:Not Yet Rated (Log in to rate it)


Tracker:
http://ipv4.tracker.harry.lu/announce

This Torrent also has backup trackers
URLSeedersLeechersCompleted
http://ipv4.tracker.harry.lu/announce126205371
http://ipv4.tracker.harry.lu:80/announce126205371
http://tracker.devil-torrents.pl:80/announce1421750
http://tracker.devil-torrents.pl/announce1411760
http://open.kickasstracker.com/announce1502460
http://open.kickasstracker.com:443/announce1502460
http://tracker.devil-torrents.pl/announce1411760


File List: 


Comments

No comments still posted

Powered by 10 Hamsters v2-svn -|- Page Generated In 1.322245 secs.
-|- RSS Feed -|- Feed Info
Theme By: Nikkbu