Bucky Ohare And The Toad Wars | Watch This Link! | Ficção Cientifica
[Login] or [Signup]
Login
Username:
Password:
[Signup]
[Recover Account]


Poll


You must be logged in to view polls



Torrent Details For "The Lego Ninjago Movie 2017 1080p HC HDRip X264 AC3"

The Lego Ninjago Movie 2017 1080p HC HDRip X264 AC3

Download this torrent | Magnet Download
Health:
Seeds: 364
Leechers: 253
Completed: 965 
Last Checked: 13-10-2017 15:31:20
External Torrent
Update Stats


Poster


Details
Name:The Lego Ninjago Movie 2017 1080p HC HDRip X264 AC3
Description:


General
Format                                   : Matroska
Format version                           : Version 4 / Version 2
File size                                : 1.10 GiB
Duration                                 : 1 h 37 min
Overall bit rate                         : 1 624 kb/s

Video
ID                                       : 1
Format                                   : AVC
Format/Info                              : Advanced Video Codec
Format profile                           : [email protected]
Format settings                          : CABAC / 4 Ref Frames
Format settings, CABAC                   : Yes
Format settings, RefFrames               : 4 frames
Codec ID                                 : V_MPEG4/ISO/AVC
Duration                                 : 1 h 37 min
Bit rate                                 : 1 500 kb/s
Width                                    : 1 920 pixels
Height                                   : 800 pixels
Display aspect ratio                     : 2.40:1
Frame rate mode                          : Constant
Frame rate                               : 25.000 FPS
Color space                              : YUV
Chroma subsampling                       : 4:2:0
Bit depth                                : 8 bits
Scan type                                : Progressive
Bits/(Pixel*Frame)                       : 0.039
Stream size                              : 1.01 GiB (92%)
Writing library                          : x264 core 148 r2643 5c65704
Default                                  : Yes
Forced                                   : No

Audio
ID                                       : 2
Format                                   : AC-3
Format/Info                              : Audio Coding 3
Format settings, Endianness              : Big
Codec ID                                 : A_AC3
Duration                                 : 1 h 37 min
Bit rate mode                            : Constant
Bit rate                                 : 128 kb/s
Channel(s)                               : 2 channels
Channel positions                        : Front: L R
Sampling rate                            : 44.1 kHz
Frame rate                               : 28.711 FPS (1536 SPF)
Bit depth                                : 16 bits
Compression mode                         : Lossy
Stream size                              : 89.0 MiB (8%)
Service kind                             : Complete Main
Default                                  : Yes
Forced                                   : No






Category:Movies > HDRips
Lang:English  English
Total Size:1.10 GB
Info Hash:075cafea53d29d9c804840f166e5d1fed229f74c
Added By:Freaky
Date Added:13-10-2017 08:26:36
Views:93
Hits:30

Ratings:Not Yet Rated (Log in to rate it)


Tracker:
http://ipv4.tracker.harry.lu/announce

This Torrent also has backup trackers
URLSeedersLeechersCompleted
http://ipv4.tracker.harry.lu/announce3624115
http://ipv4.tracker.harry.lu:80/announce3624115
http://tracker.devil-torrents.pl:80/announce12290
http://tracker.devil-torrents.pl/announce32200
http://open.kickasstracker.com/announce35220
http://open.kickasstracker.com:443/announce35220
http://tracker.devil-torrents.pl/announce32200


File List: 


Comments

No comments still posted

Powered by 10 Hamsters v2-svn -|- Page Generated In 1.348501 secs.
-|- RSS Feed -|- Feed Info
Theme By: Nikkbu