Mafia Story | descargar Roman J. Israel Esq 1080p BRRip película completa 2017 | James Hayter
[Login] or [Signup]
Login
Username:
Password:
[Signup]
[Recover Account]


Poll


You must be logged in to view polls



Torrent Details For "American Made 2017 720p HDRip x264 KORSUB"

American Made 2017 720p HDRip x264 KORSUB

Download this torrent | Magnet Download
Health:
Seeds: 806
Leechers: 450
Completed: 3,369 
Last Checked: 14-10-2017 02:25:20
External Torrent
Update Stats


Poster


Details
Name:American Made 2017 720p HDRip x264 KORSUB
Description:

General
Format                                   : Matroska
Format version                           : Version 4 / Version 2
File size                                : 1.04 GiB
Duration                                 : 1 h 53 min
Overall bit rate                         : 1 315 kb/s

Video
ID                                       : 1
Format                                   : AVC
Format/Info                              : Advanced Video Codec
Format profile                           : [email protected]
Format settings                          : CABAC / 4 Ref Frames
Format settings, CABAC                   : Yes
Format settings, RefFrames               : 4 frames
Codec ID                                 : V_MPEG4/ISO/AVC
Duration                                 : 1 h 53 min
Bit rate                                 : 1 200 kb/s
Width                                    : 1 280 pixels
Height                                   : 688 pixels
Display aspect ratio                     : 1.85:1
Frame rate mode                          : Constant
Frame rate                               : 23.976 (23976/1000) FPS
Color space                              : YUV
Chroma subsampling                       : 4:2:0
Bit depth                                : 8 bits
Scan type                                : Progressive
Bits/(Pixel*Frame)                       : 0.057
Stream size                              : 963 MiB (90%)
Writing library                          : x264 core 148 r2643 5c65704
Default                                  : Yes
Forced                                   : No

Audio
ID                                       : 2
Format                                   : AAC
Format/Info                              : Advanced Audio Codec
Format profile                           : LC
Codec ID                                 : A_AAC-2
Duration                                 : 1 h 53 min
Bit rate                                 : 128 kb/s
Channel(s)                               : 2 channels
Channel positions                        : Front: L R
Sampling rate                            : 44.1 kHz
Frame rate                               : 43.066 FPS (1024 SPF)
Compression mode                         : Lossy
Stream size                              : 104 MiB (10%)
Language                                 : English
Default                                  : Yes
Forced                                   : No





Category:Movies > HDRips
Lang:English  English
Total Size:1.04 GB
Info Hash:e6d5d4762a926f83682f378cadbbc40fcd7cbafe
Added By:Freaky
Date Added:13-10-2017 09:48:26
Views:223
Hits:69

Ratings:Not Yet Rated (Log in to rate it)


Tracker:
http://ipv4.tracker.harry.lu/announce

This Torrent also has backup trackers
URLSeedersLeechersCompleted
http://ipv4.tracker.harry.lu/announce6933361
http://ipv4.tracker.harry.lu:80/announce6933361
http://tracker.devil-torrents.pl:80/announce56320
http://tracker.devil-torrents.pl/announce56320
http://open.kickasstracker.com/announce72400
http://open.kickasstracker.com:443/announce72400
http://tracker.devil-torrents.pl/announce56320


File List: 


Comments

No comments still posted

Powered by 10 Hamsters v2-svn -|- Page Generated In 1.165220 secs.
-|- RSS Feed -|- Feed Info
Theme By: Nikkbu