Switched at Birth | Arthur & George | The Age of Spin: D..
[Login] or [Signup]
Login
Username:
Password:
[Signup]
[Recover Account]


Poll


You must be logged in to view polls



Torrent Details For "Spider-Man Homecoming 2017 1080p BluRay DTS 5.1 MAVI"

Spider-Man Homecoming 2017 1080p BluRay DTS 5.1 MAVI

Download this torrent | Magnet Download
Health:
Seeds: 82
Leechers: 84
Completed: 158 
Last Checked: 14-10-2017 09:25:16
External Torrent
Update Stats


Poster


iMDB
Imdb Picture Title: Spider-Man: Homecoming
Year: 2017
Runtime: 133 minutes
Votes: 14742
Rating: 8.3/10
Language: English
Country: USA
All Genres: Action, Adventure, Sci-Fi
Plot Outline: Several months after the events of Captain America: Civil War, Peter Parker, with the help of his mentor Tony Stark, tries to balance his life as an ordinary high school student in Queens, New York City while fighting crime as his superhero alter ego Spider-Man as a new threat, the Vulture, emerges.
Director: Jon Watts
Writing By: Jonathan Goldstein,John Francis Daley,Jon Watts,Christopher Ford,Chris McKenna,Erik Sommers,Jonathan Goldstein,John Francis Daley,Stan Lee,Steve Ditko,
Produced By: Victoria Alonso,Avi Arad,Mitchell Bell,Eric Hauserman Carroll,Louis D'Esposito,Kevin Feige,Jeremy Latcham,Stan Lee,Rachel O'Connor,Amy Pascal,Matt Tolmach,Patricia Whitcher,
Music: Michael Giacchino
Plot:

Thrilled by his experience with the Avengers, Peter returns home, where he lives with his Aunt May, under the watchful eye of his new mentor Tony Stark, Peter tries to fall back into his normal daily routine - distracted by thoughts of proving himself to be more than just your friendly neighborhood Spider-Man - but when the Vulture emerges as a new villain, everything that Peter holds most important will be threatened.

- Written by Benett Sullivan

Peter Parker is exploring the concept of becoming an Avenger. Tony Stark tries to help Peter, but he does not have total faith in Spider-Man to become a hero. And so Peter Parker, aka Spider-Man sets off to prove he is worthy to become an Avenger!

- Written by David Norton

A young Peter Parker/Spider-Man begins to navigate his newfound identity as the web-slinging super hero Spider-Man. Thrilled by his experience with the Avengers, Peter returns home, where he lives with his Aunt May, under the watchful eye of his new mentor Tony Stark. Peter tries to fall back into his normal daily routine - distracted by thoughts of proving himself to be more than just your friendly neighborhood Spider-Man - but when the Vulture emerges as a new villain, everything that Peter holds most important will be threatened.

- Written by Flick Direct

Several months after the events of Captain America: Civil War, Peter Parker, with the help of his mentor Tony Stark, tries to balance his life as an ordinary high school student in Queens, New York City while fighting crime as his superhero alter ego Spider-Man as a new threat, the Vulture, emerges.


Cast:
Tom Holland as Peter Parker / Spider-Man
Michael Keaton as Adrian Toomes / Vulture
Robert Downey Jr. as Tony Stark / Iron Man
Marisa Tomei as May Parker
Jon Favreau as Happy Hogan
Gwyneth Paltrow as Pepper Potts
Zendaya as Michelle
Donald Glover as Aaron Davis
Jacob Batalon as Ned
Laura Harrier as Liz
Trailers:
Trailer With Commentary
Spiderman Homecoming
IMDb Exclusive
International Trailer #3
Trailer #3
Trailer #2
Trailer #1


Details
Name:Spider-Man Homecoming 2017 1080p BluRay DTS 5.1 MAVI
Description:

 

Movie Encode From Full BD/BDREMUX

Spider-Man Homecoming 2017 1080p BluRay DTS 5.1 MAVI

 IMDB Link

 Join Us Now

 Join Us Now FaceBook

 Org Bluray Audio

 Sample Include in torrent

Video
ID                                       : 1
Format                                   : AVC
Format/Info                              : Advanced Video Codec
Format profile                           : [email protected]
Format settings                          : CABAC / 4 Ref Frames
Format settings, CABAC                   : Yes
Format settings, RefFrames               : 4 frames
Codec ID                                 : V_MPEG4/ISO/AVC
Duration                                 : 2 h 13 min
Bit rate                                 : 4 500 kb/s
Width                                    : 1 920 pixels
Height                                   : 804 pixels
Display aspect ratio                     : 2.40:1
Frame rate mode                          : Constant
Frame rate                               : 23.976 (24000/1001) FPS
Color space                              : YUV
Chroma subsampling                       : 4:2:0
Bit depth                                : 8 bits
Scan type                                : Progressive
Bits/(Pixel*Frame)                       : 0.122
Stream size                              : 4.19 GiB (74%)
Title                                    : Spider-Man Homecoming 2017 1080p BluRay DTS 5.1 MAVI
Language                                 : English
Default                                  : Yes
Forced                                   : No
Color range                              : Limited
Color primaries                          : BT.709
Transfer characteristics                 : BT.709
Matrix coefficients                      : BT.709

Audio
ID                                       : 2
Format                                   : DTS
Format/Info                              : Digital Theater Systems
Mode                                     : 16
Format settings, Endianness              : Big
Codec ID                                 : A_DTS
Duration                                 : 2 h 13 min
Bit rate mode                            : Constant
Bit rate                                 : 1 509 kb/s
Channel(s)                               : 6 channels
Channel positions                        : Front: L C R, Side: L R, LFE
Sampling rate                            : 48.0 kHz
Frame rate                               : 93.750 FPS (512 SPF)
Bit depth                                : 16 bits
Compression mode                         : Lossy
Stream size                              : 1.41 GiB (25%)
Title                                    : English-DTS-5.1-1509kbps
Language                                 : English
Default                                  : No
Forced                                   : No

Text #1
ID                                       : 3
Format                                   : PGS
Codec ID                                 : S_HDMV/PGS
Codec ID/Info                            : Picture based subtitle format used on BDs/HD-DVDs
Duration                                 : 2 h 12 min
Bit rate                                 : 38.6 kb/s
Count of elements                        : 3555
Stream size                              : 36.5 MiB (1%)
Title                                    : English-PGS
Language                                 : English
Default                                  : Yes
Forced                                   : No

Text #2
ID                                       : 4
Format                                   : PGS
Codec ID                                 : S_HDMV/PGS
Codec ID/Info                            : Picture based subtitle format used on BDs/HD-DVDs
Duration                                 : 2 h 12 min
Bit rate                                 : 45.6 kb/s
Count of elements                        : 4421
Stream size                              : 43.3 MiB (1%)
Title                                    : English-SDH-PGS
Language                                 : English
Default                                  : No
Forced                                   : No

Text #3
ID                                       : 5
Format                                   : PGS
Codec ID                                 : S_HDMV/PGS
Codec ID/Info                            : Picture based subtitle format used on BDs/HD-DVDs
Duration                                 : 5 s 130 ms
Bit rate                                 : 53.3 kb/s
Count of elements                        : 4
Stream size                              : 33.4 KiB (0%)
Title                                    : English-FORCED-PGS
Language                                 : English
Default                                  : No
Forced                                   : No

Menu
00:00:00.000                             : en:Chapter 01
00:05:33.791                             : en:Chapter 02
00:14:24.113                             : en:Chapter 03
00:20:50.707                             : en:Chapter 04
00:26:19.077                             : en:Chapter 05
00:36:27.727                             : en:Chapter 06
00:46:03.635                             : en:Chapter 07
00:54:40.151                             : en:Chapter 08
01:05:10.156                             : en:Chapter 09
01:12:03.277                             : en:Chapter 10
01:20:19.815                             : en:Chapter 11
01:29:41.501                             : en:Chapter 12
01:36:56.894                             : en:Chapter 13
01:44:44.152                             : en:Chapter 14
01:50:31.124                             : en:Chapter 15
01:57:53.566                             : en:Chapter 16












Category:Movies > 1080P Bluray
Lang:English  English
Total Size:5.74 GB
Info Hash:6ee168ffd4463bc33d406d87f3e90d59169ff7fe
Added By:Sup2425
Date Added:13-10-2017 12:06:11
Views:167
Hits:64

Ratings:Not Yet Rated (Log in to rate it)


Tracker:
udp://inferno.demonoid.pw:3391/announce


File List: 


Comments

No comments still posted

Powered by 10 Hamsters v2-svn -|- Page Generated In 1.424135 secs.
-|- RSS Feed -|- Feed Info
Theme By: Nikkbu